ホーム > 日記 > ニコ動の低画質版は低音質版でもある

ニコ動の低画質版は低音質版でもある

低画質版だからか音割れがひどかったので、ついカッとなってプレミアム課金。


23485529  sm881011_lowquality.flv
39720930  sm881011_premium.flv

プレミアムは、再エンコ制限ギリギリの40M弱の通常版ファイル。


Input #0, flv, from 'sm881011_premium.flv':
  Duration: 00:10:22.1, start: 0.000000, bitrate: 224 kb/s
  Stream #0.0: Video: vp6f, yuv420p, 512x384, 29.92 fps(r)
  Stream #0.1: Audio: mp3, 44100 Hz, stereo, 224 kb/s

元のビットレートは224kbpsらしい。


Input #0, flv, from 'sm881011_lowquality.flv':
  Duration: 00:10:22.1, start: 0.000000, bitrate: 64 kb/s
  Stream #0.0: Video: vp6f, yuv420p, 320x240, 29.92 fps(r)
  Stream #0.1: Audio: mp3, 44100 Hz, stereo, 64 kb/s

低画質版は64kbpsかぁ。
動画楽しむなら別に音なんてどうでもいいけどさ。
最近は再エンコで音ずれの問題とかでてきてるけど。
QVGAリサイズに絶望した。

カテゴリー: 日記 タグ:
  1. コメントはまだありません。
  1. トラックバックはまだありません。